28.05.2015 FFMpeg support

Новые релизы, обновления и т.п.

Модератор: immortal

Аватара пользователя
tarasfrompir
Сообщения: 3111
Зарегистрирован: Ср мар 02, 2016 8:18 pm
Откуда: Украина Пирятин
Благодарил (а): 209 раз
Поблагодарили: 770 раз

Re: 28.05.2015 FFMpeg support

Сообщение tarasfrompir » Пт дек 18, 2020 1:37 pm

Altsky писал(а):
Пт дек 18, 2020 1:00 pm
Подскажите, постоянно пишется в файл /var/log/apache2/error.log вот такой код

Код: Выделить всё

ffmpeg version 3.4.8-0ubuntu0.2 Copyright (c) 2000-2020 the FFmpeg developers
  built with gcc 7 (Ubuntu/Linaro 7.5.0-3ubuntu1~18.04)
  configuration: --prefix=/usr --extra-version=0ubuntu0.2 --toolchain=hardened --libdir=/usr/lib/arm-linux-gnueabihf --incdir=/usr/include/arm-linux-gnueabihf --enable-gpl --disable-stripping --enable-avresample --enable-avisynth --enable-gnutls --enable-ladspa --enable-libass --enable-libbluray --enable-libbs2b --enable-libcaca --enable-libcdio --enable-libflite --enable-libfontconfig --enable-libfreetype --enable-libfribidi --enable-libgme --enable-libgsm --enable-libmp3lame --enable-libmysofa --enable-libopenjpeg --enable-libopenmpt --enable-libopus --enable-libpulse --enable-librubberband --enable-librsvg --enable-libshine --enable-libsnappy --enable-libsoxr --enable-libspeex --enable-libssh --enable-libtheora --enable-libtwolame --enable-libvorbis --enable-libvpx --enable-libwavpack --enable-libwebp --enable-libx265 --enable-libxml2 --enable-libxvid --enable-libzmq --enable-libzvbi --enable-omx --enable-openal --enable-opengl --enable-sdl2 --enable-libdc1394 --enable-libdrm --enable-libiec61883 --enable-chromaprint --enable-frei0r --enable-libopencv --enable-libx264 --enable-shared
  libavutil      55. 78.100 / 55. 78.100
  libavcodec     57.107.100 / 57.107.100
  libavformat    57. 83.100 / 57. 83.100
  libavdevice    57. 10.100 / 57. 10.100
  libavfilter     6.107.100 /  6.107.100
  libavresample   3.  7.  0 /  3.  7.  0
  libswscale      4.  8.100 /  4.  8.100
  libswresample   2.  9.100 /  2.  9.100
  libpostproc    54.  7.100 / 54.  7.100
Input #0, rtsp, from 'rtsp://192.168.10.8:554/user=admin&password=&channel=1&stream=0.sdp':
  Metadata:
    title           : RTSP Session
  Duration: N/A, start: 0.575000, bitrate: N/A
    Stream #0:0: Video: h264 (Baseline), yuv420p(tv, GBR, progressive), 1280x720, 10 fps, 25 tbr, 90k tbn, 20 tbc
Stream mapping:
  Stream #0:0 -> #0:0 (h264 (native) -> mjpeg (native))
Press [q] to stop, [?] for help
[swscaler @ 0x23b0cd0] deprecated pixel format used, make sure you did set range correctly
Output #0, image2, to '/var/www/cms/cached/thumb_88aa2eb47cb89d973c6b86ceaa7aec98rtsp192168108554useradminpasswordchannel1stream0sdp':
  Metadata:
    title           : RTSP Session
    encoder         : Lavf57.83.100
    Stream #0:0: Video: mjpeg, yuvj420p(pc), 870x489, q=2-31, 200 kb/s, 5 fps, 5 tbn, 5 tbc
    Metadata:
      encoder         : Lavc57.107.100 mjpeg
    Side data:
      cpb: bitrate max/min/avg: 0/0/200000 buffer size: 0 vbv_delay: -1
frame=    1 fps=0.0 q=6.3 Lsize=N/A time=00:00:00.20 bitrate=N/A speed=0.613x    
video:40kB audio:0kB subtitle:0kB other streams:0kB global headers:0kB muxing overhead: unknown
как это побороть?
Есть такое понятие как задержка перед приемом именно ртсп потока - ее и надо юзать... Тоесть пока ффмпег не получит полный кадр ... а не частичные данные...
Спасибо нам ПОМОЖЕТ..!
Altsky
Сообщения: 16
Зарегистрирован: Вс май 24, 2020 9:24 am
Благодарил (а): 1 раз
Поблагодарили: 1 раз

Re: 28.05.2015 FFMpeg support

Сообщение Altsky » Пт дек 18, 2020 1:44 pm

Я спросил как убрать вывод информации в файл error.log
Armbian Bionic with Linux 5.7.15-sunxi на cubietruck
Аватара пользователя
tarasfrompir
Сообщения: 3111
Зарегистрирован: Ср мар 02, 2016 8:18 pm
Откуда: Украина Пирятин
Благодарил (а): 209 раз
Поблагодарили: 770 раз

Re: 28.05.2015 FFMpeg support

Сообщение tarasfrompir » Пт дек 18, 2020 2:56 pm

Altsky писал(а):
Пт дек 18, 2020 1:44 pm
Я спросил как убрать вывод информации в файл error.log
Для того чтобы убрать из лога инфу - надо устранить ошибку - что за ошибка возможно есть я описал - сам с таким сталкивался...
Я не претендую на правильность просто описал что знаю
Спасибо нам ПОМОЖЕТ..!
Altsky
Сообщения: 16
Зарегистрирован: Вс май 24, 2020 9:24 am
Благодарил (а): 1 раз
Поблагодарили: 1 раз

Re: 28.05.2015 FFMpeg support

Сообщение Altsky » Вс дек 27, 2020 9:59 am

В методе onNewMinute есть строки

Код: Выделить всё

 if (timeIs("03:00")) {
 runScript("systemMaintenance");
 }
как сделать. чтобы при этом выполнялось
cat /dev/null > /var/log/apache2/error.log
желательно по подробнее
Armbian Bionic with Linux 5.7.15-sunxi на cubietruck
Аватара пользователя
nick7zmail
Сообщения: 7522
Зарегистрирован: Пн окт 28, 2013 8:14 am
Откуда: Екатеринбург
Благодарил (а): 121 раз
Поблагодарили: 1991 раз

Re: 28.05.2015 FFMpeg support

Сообщение nick7zmail » Вс дек 27, 2020 5:31 pm

Altsky писал(а):В методе onNewMinute есть строки

Код: Выделить всё

 if (timeIs("03:00")) {
 runScript("systemMaintenance");
 }
как сделать. чтобы при этом выполнялось
cat /dev/null > /var/log/apache2/error.log
желательно по подробнее
Вписать это в скрипт systemMaintenance (он в разделе сценарии)

Отправлено с моего Xperia XZ1 Compact через Tapatalk

Raspberry Pi3+Broadlink+esp8266 (blynk)+AMS
Если вам помогло какое-либо сообщение - не забывайте пользоваться кнопкой "СПАСИБО".
:arrow: Услуги в профиле коннект
>>>>>Мой новый канал на ютутбе, подписывайтесь!<<<<<
Altsky
Сообщения: 16
Зарегистрирован: Вс май 24, 2020 9:24 am
Благодарил (а): 1 раз
Поблагодарили: 1 раз

Re: 28.05.2015 FFMpeg support

Сообщение Altsky » Вс дек 27, 2020 5:57 pm

при попытке сохранить скрипт появляется
Ошибка в коде -> syntax error, unexpected '/' /var/www/cms/cached/f894622d7cb860341fdf688d49116c16.php on line 2
Вы можете восстановить предыдущий код, восстановить?
Armbian Bionic with Linux 5.7.15-sunxi на cubietruck
Altsky
Сообщения: 16
Зарегистрирован: Вс май 24, 2020 9:24 am
Благодарил (а): 1 раз
Поблагодарили: 1 раз

Re: 28.05.2015 FFMpeg support

Сообщение Altsky » Чт дек 31, 2020 12:26 pm

Может кому пригодится:
скрипт systemMaintenance

Код: Выделить всё

$file_a = '/var/log/apache2/access.log';
file_put_contents( $file_a , "" );
$file_e = '/var/log/apache2/error.log';
file_put_contents( $file_e , "" );
и добавил пользователя www-data
chown -R www-data:www-data /var/log/apache2
Armbian Bionic with Linux 5.7.15-sunxi на cubietruck
Аватара пользователя
xor
Сообщения: 1739
Зарегистрирован: Сб ноя 22, 2014 8:45 pm
Благодарил (а): 211 раз
Поблагодарили: 521 раз

Re: 28.05.2015 FFMpeg support

Сообщение xor » Чт дек 31, 2020 3:28 pm

Altsky писал(а):
Вс дек 27, 2020 9:59 am
В методе onNewMinute есть строки

Код: Выделить всё

 if (timeIs("03:00")) {
 runScript("systemMaintenance");
 }
как сделать. чтобы при этом выполнялось
cat /dev/null > /var/log/apache2/error.log
желательно по подробнее
замечание - зачем наступление 3 часов ночи проверять каждую минуту? уж в часовой метод перенесите, что ли
Ответить